BrowseTrendingLibraryHelp




Title:

Needle and Thread_ Made in India 2018 HDRip MovieOW

Health:

Seeders : 1 Leechers: 14 Peers : 15 Completed : 0

Update:

3 months ago

Rating:

0 0 0

Uploaded:

3 months ago

Uploader:

Unknown

Hash:

f9f8378a120d9716d4627b4df99d22154c17fbc6

Origin:

Torrent4You

Size:

2.26 GB

Download:

Magnet

Views:

45

Tags:

Needle and Thread_ Made in India 2018 HDRip MovieOW

Category:

Audio /FLAC

Share:

http://comeniuseducationservices.com/magnet/16593291

Title

Needle and Thread_ Made in India 2018 HDRip MovieOW

0 0 0

Download

Statistics

Seeders : 1
Leechers: 14
Peers : 15
Completed : 0
Uploaded : just now
Created : 3 months ago
Views : 45
Size : 2426769821


3 months ago


f9f8378a120d9716d4627b4df99d22154c17fbc6

Tag

Needle and Thread_ Made in India 2018 HDRip MovieOW

Category:

Audio /FLAC


Description

[url=http://www.movieow.me]www.movieow.me[/url]


[img]http://m.media-amazon.com/images/M/MV5BYTRiNjg4M2It[email protected]._V1_UX182_CR0,0,182,268_AL_.jpg[/img]

A heart-warming story of pride and self-reliance, rooted in the heart of India.
Director: Sharat Katariya
Writer: Sharat Katariya
Stars: Varun Dhawan, Anushka Sharma, Raghuvir Yadav

General
Complete name : Needle and Thread_ Made in India (2018) HDRip [MovieOW].mp4
Format : MPEG-4
Format profile : Base Media
Codec ID : isom (isom/iso2/avc1/mp41)
File size : 2.26 GiB
Duration : 2 h 2 min
Overall bit rate mode : Variable
Overall bit rate : 2 647 kb/s
Movie name : www.movieow.me
Encoded date : UTC 2018-11-15 08:38:05
Tagged date : UTC 2018-11-15 08:38:05
Writing application : Lavf51.12.1

Video
ID : 1
Format : AVC
Format/Info : Advanced Video Codec
Format profile : [email protected]
Format settings : 1 Ref Frames
Format settings, CABAC : No
Format settings, RefFrames : 1 frame
Format settings, GOP : M=1, N=12
Codec ID : avc1
Codec ID/Info : Advanced Video Coding
Duration : 2 h 2 min
Bit rate : 2 515 kb/s
Width : 1 280 pixels
Height : 720 pixels
Display aspect ratio : 16:9
Frame rate mode : Constant
Frame rate : 23.976 (24000/1001) FPS
Color space : YUV
Chroma subsampling : 4:2:0
Bit depth : 8 bits
Scan type : Progressive
Bits/(Pixel*Frame) : 0.114
Stream size : 2.15 GiB (95%)
Encoded date : UTC 2018-11-15 08:38:05
Tagged date : UTC 2018-11-15 08:38:05
Codec configuration box : avcC

Audio
ID : 2
Format : AAC LC
Format/Info : Advanced Audio Codec Low Complexity
Codec ID : mp4a-40-2
Duration : 2 h 2 min
Bit rate mode : Variable
Bit rate : 128 kb/s
Channel(s) : 2 channels
Channel layout : L R
Sampling rate : 44.1 kHz
Frame rate : 43.066 FPS (1024 SPF)
Compression mode : Lossy
Stream size : 112 MiB (5%)
Language : Hindi
Encoded date : UTC 2018-11-15 08:38:05
Tagged date : UTC 2018-11-15 08:38:05



Comments

Unidentified:




Torrent4You Torrentz2 PirateIro AIOsearch