BrowseTrendingLibraryHelp




Title:

Mitron 2018 HDRip MovieOW

Health:

Seeders : 1 Leechers: 0 Peers : 1 Completed : 0

Update:

3 months ago

Rating:

0 0 0

Uploaded:

3 months ago

Uploader:

Unknown

Hash:

8f8393bbe576d8ed317539c73a4d86947f2c0ed0

Origin:

Torrent4You

Size:

2.22 GB

Download:

Magnet

Views:

49

Tags:

Mitron 2018 HDRip MovieOW

Category:

Audio /FLAC

Share:

http://comeniuseducationservices.com/magnet/16593293

Title

Mitron 2018 HDRip MovieOW

0 0 0

Download

Statistics

Seeders : 1
Leechers: 0
Peers : 1
Completed : 0
Uploaded : just now
Created : 3 months ago
Views : 49
Size : 2382381902


3 months ago


8f8393bbe576d8ed317539c73a4d86947f2c0ed0

Tag

Mitron 2018 HDRip MovieOW

Category:

Audio /FLAC


Description

http://www.movieow.me

http://mondoagram.com/3pWQ

Jai "Jackky Bhagnani", born and brought up with middle-class values, has a 'take it easy' approach to life. Since he doesn't believe in a herd mentality, he and his two best friends, Raunak "Pratik Gandhi" and Deepu "Shivam Parekh" start looking for unique ways to make it big in the world. During this trial and error phase, Jai realizes his dream. But his decision of choosing an unprofitable career path doesn't go down too well with his father "Neeraj Sood", who has bigger aspirations for him. Therefore, in order to bring stability to his life, his father decides to get him married. Destiny, however, has something else in store for Jai, when he accidentally meets Avni "Kritika Kamra", an ambitious, MBA graduate, who wants to start her own business. Set in the backdrop of the Gujarati milieu, the film traces Jai and Avni's personal journey, as they both find themselves and discover the true meaning of friendship in the bargain.

Director: Nitin Kakkar
Writers: Tharun Bhascker Dhaassyam (original story), Sharib Hashmi (adapted by)
Stars: Prateek Babar, Maya Ben, Jackky Bhagnani

General
Complete name : Mitron (2018) HDRip [MovieOW].mp4
Format : MPEG-4
Format profile : Base Media
Codec ID : isom (isom/iso2/avc1/mp41)
File size : 2.22 GiB
Duration : 1 h 56 min
Overall bit rate mode : Variable
Overall bit rate : 2 733 kb/s
Movie name : www.movieow.me
Encoded date : UTC 2018-11-15 08:38:05
Tagged date : UTC 2018-11-15 08:38:05
Writing application : Lavf51.12.1

Video
ID : 1
Format : AVC
Format/Info : Advanced Video Codec
Format profile : [email protected]
Format settings : 1 Ref Frames
Format settings, CABAC : No
Format settings, RefFrames : 1 frame
Format settings, GOP : M=1, N=12
Codec ID : avc1
Codec ID/Info : Advanced Video Coding
Duration : 1 h 56 min
Bit rate : 2 600 kb/s
Width : 1 280 pixels
Height : 720 pixels
Display aspect ratio : 16:9
Frame rate mode : Constant
Frame rate : 24.000 FPS
Color space : YUV
Chroma subsampling : 4:2:0
Bit depth : 8 bits
Scan type : Progressive
Bits/(Pixel*Frame) : 0.118
Stream size : 2.11 GiB (95%)
Encoded date : UTC 2018-11-15 08:38:05
Tagged date : UTC 2018-11-15 08:38:05
Codec configuration box : avcC

Audio
ID : 2
Format : AAC LC
Format/Info : Advanced Audio Codec Low Complexity
Codec ID : mp4a-40-2
Duration : 1 h 56 min
Bit rate mode : Variable
Bit rate : 128 kb/s
Channel(s) : 2 channels
Channel layout : L R
Sampling rate : 44.1 kHz
Frame rate : 43.066 FPS (1024 SPF)
Compression mode : Lossy
Stream size : 106 MiB (5%)
Language : Hindi
Encoded date : UTC 2018-11-15 08:38:05
Tagged date : UTC 2018-11-15 08:38:05



Comments

Unidentified:




Torrent4You Torrentz2 PirateIro AIOsearch