BrowseTrendingLibraryHelp




Title:

Batti Gul Meter Chalu 2018 HDRip OpenTsubasa

Health:

Seeders : 1 Leechers: 5 Peers : 6 Completed : 0

Update:

2 months ago

Rating:

0 0 0

Uploaded:

2 months ago

Uploader:

Unknown

Hash:

7f2ffedf1bc7713f615859d47892f3b1612e2e53

Origin:

Torrent4You

Size:

2.7 GB

Download:

Magnet

Views:

48

Tags:

Batti Gul Meter Chalu 2018 HDRip OpenTsubasa

Category:

Other /E-Books

Share:

http://comeniuseducationservices.com/magnet/16593814

Title

Batti Gul Meter Chalu 2018 HDRip OpenTsubasa

0 0 0

Download

Statistics

Seeders : 1
Leechers: 5
Peers : 6
Completed : 0
Uploaded : just now
Created : 2 months ago
Views : 48
Size : 2897003779


2 months ago


7f2ffedf1bc7713f615859d47892f3b1612e2e53

Tag

Batti Gul Meter Chalu 2018 HDRip OpenTsubasa

Category:

Other /E-Books


Description

http://movies.opentsubasa.com

The life of three friends takes a tragic turn due to an inflated electricity bill, which leads to a courtroom drama and social awakening.
Director: Shree Narayan Singh
Writers: Vipul K. Rawal (Original Story Concept), Siddharth Singh (adapted by) (as Siddharth)
Stars: Shahid Kapoor, Shraddha Kapoor, Divyendu Sharma

General
Complete name : Batti Gul Meter Chalu (2018)-[OpenTsubasa].mp4
Format : MPEG-4
Format profile : Base Media
Codec ID : isom (isom/iso2/avc1/mp41)
File size : 2.70 GiB
Duration : 2 h 26 min
Overall bit rate mode : Variable
Overall bit rate : 2 644 kb/s
Movie name : www.movies.opentsubasa.com
Encoded date : UTC 2018-12-10 12:03:22
Tagged date : UTC 2018-12-10 12:03:22
Writing application : Lavf51.12.1
Comment : www.movies.opentsubasa.com

Video
ID : 1
Format : AVC
Format/Info : Advanced Video Codec
Format profile : [email protected]
Format settings : 1 Ref Frames
Format settings, CABAC : No
Format settings, RefFrames : 1 frame
Format settings, GOP : M=1, N=12
Codec ID : avc1
Codec ID/Info : Advanced Video Coding
Duration : 2 h 26 min
Bit rate : 2 512 kb/s
Width : 1 280 pixels
Height : 720 pixels
Display aspect ratio : 16:9
Frame rate mode : Constant
Frame rate : 25.000 FPS
Color space : YUV
Chroma subsampling : 4:2:0
Bit depth : 8 bits
Scan type : Progressive
Bits/(Pixel*Frame) : 0.109
Stream size : 2.56 GiB (95%)
Encoded date : UTC 2018-12-10 12:03:22
Tagged date : UTC 2018-12-10 12:03:22
Codec configuration box : avcC

Audio
ID : 2
Format : AAC LC
Format/Info : Advanced Audio Codec Low Complexity
Codec ID : mp4a-40-2
Duration : 2 h 26 min
Bit rate mode : Variable
Bit rate : 128 kb/s
Channel(s) : 2 channels
Channel layout : L R
Sampling rate : 44.1 kHz
Frame rate : 43.066 FPS (1024 SPF)
Compression mode : Lossy
Stream size : 134 MiB (5%)
Encoded date : UTC 2018-12-10 12:03:22
Tagged date : UTC 2018-12-10 12:03:22



Comments

Unidentified:




Torrent4You Torrentz2 PirateIro AIOsearch