BrowseTrendingLibraryHelp




Title:

Happy Phirr Bhag Jayegi 2018 HDRip OpenTsubasa

Health:

Seeders : 2 Leechers: 4 Peers : 6 Completed : 0

Update:

2 months ago

Rating:

0 0 0

Uploaded:

2 months ago

Uploader:

Unknown

Hash:

c34eeb055a26928f8154231cbf9d7979a8b2b4c8

Origin:

Torrent4You

Size:

2.52 GB

Download:

Magnet

Views:

40

Tags:

Happy Phirr Bhag Jayegi 2018 HDRip OpenTsubasa

Category:

Other /E-Books

Share:

http://comeniuseducationservices.com/magnet/16593816

Title

Happy Phirr Bhag Jayegi 2018 HDRip OpenTsubasa

0 0 0

Download

Statistics

Seeders : 2
Leechers: 4
Peers : 6
Completed : 0
Uploaded : just now
Created : 2 months ago
Views : 40
Size : 2707099952


2 months ago


c34eeb055a26928f8154231cbf9d7979a8b2b4c8

Tag

Happy Phirr Bhag Jayegi 2018 HDRip OpenTsubasa

Category:

Other /E-Books


Description

http://movies.opentsubasa.com

General
Complete name : Happy Phirr Bhag Jayegi (2018)-[OpenTsubasa].mp4
Format : MPEG-4
Format profile : Base Media
Codec ID : isom (isom/iso2/avc1/mp41)
File size : 2.52 GiB
Duration : 2 h 16 min
Overall bit rate mode : Variable
Overall bit rate : 2 652 kb/s
Movie name : www.movies.opentsubasa.com
Encoded date : UTC 2018-12-10 12:03:23
Tagged date : UTC 2018-12-10 12:03:23
Writing application : Lavf51.12.1
Comment : www.movies.opentsubasa.com

Video
ID : 1
Format : AVC
Format/Info : Advanced Video Codec
Format profile : [email protected]
Format settings : 1 Ref Frames
Format settings, CABAC : No
Format settings, RefFrames : 1 frame
Format settings, GOP : M=1, N=12
Codec ID : avc1
Codec ID/Info : Advanced Video Coding
Duration : 2 h 16 min
Bit rate : 2 519 kb/s
Width : 1 280 pixels
Height : 720 pixels
Display aspect ratio : 16:9
Frame rate mode : Constant
Frame rate : 23.976 (24000/1001) FPS
Color space : YUV
Chroma subsampling : 4:2:0
Bit depth : 8 bits
Scan type : Progressive
Bits/(Pixel*Frame) : 0.114
Stream size : 2.40 GiB (95%)
Language : Hindi
Encoded date : UTC 2018-12-10 12:03:23
Tagged date : UTC 2018-12-10 12:03:23
Codec configuration box : avcC

Audio
ID : 2
Format : AAC LC
Format/Info : Advanced Audio Codec Low Complexity
Codec ID : mp4a-40-2
Duration : 2 h 16 min
Bit rate mode : Variable
Bit rate : 128 kb/s
Channel(s) : 2 channels
Channel layout : L R
Sampling rate : 44.1 kHz
Frame rate : 43.066 FPS (1024 SPF)
Compression mode : Lossy
Stream size : 125 MiB (5%)
Language : Hindi
Encoded date : UTC 2018-12-10 12:03:23
Tagged date : UTC 2018-12-10 12:03:23



Comments

Unidentified:




Torrent4You Torrentz2 PirateIro AIOsearch